สนับสนุนเว็บ

ผู้เขียน หัวข้อ: [เว็บฝากไฟล์ไทย][Link เดียวจบ] [TV-J] Kidou Senshi Gundam UC Unicorn - episode 03  (อ่าน 384 ครั้ง)

0 สมาชิก และ 1 บุคคลทั่วไป กำลังดูหัวข้อนี้

Permalink: [เว็บฝากไฟล์ไทย][Link เดียวจบ] [TV-J] Kidou Senshi Gundam UC Unicorn - episode 03

20/พ.ค./11 หัวข้อไอดี: 55832 | ลิ้งค์หัวข้อ: /topic/55832

ออฟไลน์ unrealx

  • ออฟไลน์
  • 15003
    0
    57445



  • SuperGenius
  • ******
  • สมัครสมาชิกเมื่อ 25/01/2011
    YearsYearsYearsYearsYearsYearsYears
  • เพศ: ชาย
  • กระทู้ : 15003
  • Like Post : 57445
  • Peny : 0
  • 31730

    • ดูรายละเอียด
    • Bit-80


  • เข้าใช้งานล่าสุดเมื่อ 26/เม.ย./12


__________________________________________________________________
คุณไม่สามารถมองเห็น links ได้ กรุณา.สมัครสมาชิก หรือ เข้าสู่ระบบ
[TV-J] Kidou Senshi Gundam UC Unicorn - episode 03

__________________________________________________________________

คุณไม่สามารถมองเห็น links ได้ กรุณา.สมัครสมาชิก หรือ เข้าสู่ระบบ
[• เว็บฝากไฟล์ในไทย • ลิ้งค์เดียวจบ • ไม่ใช่เว็บบิท ]
ชื่อไฟล์ : 351608_TRDL3__TV-J__Kidou_Senshi_Gundam_UC_Unicorn_-_episode.03__BD_1920x1080_h264_AAC_5.1ch_JP_EN___Sub_JP-EN-SP-FR-CH__Chap_.mp4_[bit-80.com].7z
ขนาดไฟล์ : 2431.9284324646 เมกกะไบต์
__________________________________________________________________
Screenshot (ปก/ตัวอย่าง) :

คุณไม่สามารถมองเห็น links ได้ กรุณา.สมัครสมาชิก หรือ เข้าสู่ระบบ
http://postto.me/show.php?id=1ffdf7ea7147b62ded70f5f3b0465a9e

__________________________________________________________________

Description (รายละเอียดไฟล์) :

[การ์ตูนอนิเมชั่น]

มาแล้วกับตอนที่3 ของกันดั้มยูนิคอน อันนี้ยังไม่มีซับไทยนะครับ สำหรับคนที่อยากดูไวๆหรือพออ่านอังกฤษออกได้บ้าง

เป็น1080P แต่ไฟล์เล็กกระทัดรัด

เสียงมี ญี่ปุ่นและอังกฤษ เป็น5.1

ซับมี ญี่ปุ่น อังกฤษ สเปน ฝรั่งเศษ และจีน (คาดว่ามาจากแผ่นบลูเรย์เลย)

ป.ล. เน็ตบ้านนะครับ(อัพโหลดประมาณ100k/s) จะปล่อยเรื่อยๆจนเสร็จครับ







Quote:General

      Complete name[TV-J] Kidou Senshi Gundam UC Unicorn - episode.03 [BD 1920x1080 h264+AAC(5.1ch JP+EN) +Sub(JP-EN-SP-FR-CH) Chap].mp4

      Format : MPEG-4

      Format profile : Base Media

      Codec ID : isom

      File size : 2.37 GiB

      Duration : 59mn 10s

      Overall bit rate : 5 746 Kbps

      Movie name : ????????UC ????? episode.03 ?????????

      Encoded date : UTC 2011-03-04 10:24:52

      Tagged date : UTC 2011-03-05 10:26:30

   Video #1

      ID : 1

      Format : AVC

      Format/Info : Advanced Video Codec

      Format profile : High@L4.1

      Format settings, CABAC : Yes

      Format settings, ReFrames : 4 frames

      Format settings, GOP : M=7, N=32

      Codec ID : avc1

      Codec ID/Info : Advanced Video Coding

      Duration : 59mn 10s

      Bit rate mode : Variable

      Bit rate : 4 384 Kbps

      Maximum bit rate : 24.3 Mbps

      Width : 1 920 pixels

      Height : 1 080 pixels

      Display aspect ratio : 16:9

      Frame rate mode : Constant

      Frame rate : 23.976 fps

      Color space : YUV

      Chroma subsampling : 4:2:0

      Bit depth : 8 bits

      Scan type : Progressive

      Bits/(Pixel*Frame) : 0.088

      Stream size : 1.81 GiB (76%)

      Writing library : x264 core 106 r1732+9_DANGEROUS ac97594

      Encoding settings : cabac=1 / ref=4 / deblock=1:-1:-1 / analyse=0x3:0x113 / me=umh / subme=9 / psy=1 / fade_compensate=0.00 / psy_rd=0.75:0.25 / mixed_ref=1 / me_range=16 / chroma_me=1 / trellis=2 / 8x8dct=1 / cqm=1 / deadzone=21,11 / fast_pskip=0 / chroma_qp_offset=-4 / threads=12 / sliced_threads=0 / nr=0 / decimate=0 / interlaced=0 / constrained_intra=0 / fgo=0 / bframes=6 / b_pyramid=0 / b_adapt=1 / b_bias=0 / direct=3 / weightb=1 / open_gop=0 / weightp=2 / keyint=240 / keyint_min=1 / scenecut=60 / intra_refresh=0 / rc_lookahead=40 / rc=crf / mbtree=0 / crf=20.0 / qcomp=0.60 / qpmin=8 / qpmax=42 / qpstep=8 / vbv_maxrate=62500 / vbv_bufsize=78125 / crf_max=0.0 / ip_ratio=1.40 / pb_ratio=1.30 / aq=2 / aq-strength=0.25 / aq-sensitivity=12.00 / aq-ifactor=1.00 / aq-pfactor=1.00 / aq-bfactor=1.00 / aq2=1 / aq2-strength=0.25 / aq2-sensitivity=15.00 / nal_hrd=none

      Encoded date : UTC 2011-03-05 09:30:00

      Tagged date : UTC 2011-03-04 10:25:02

   Audio #2

      ID : 2

      Format : AAC

      Format/Info : Advanced Audio Codec

      Format version : Version 4

      Format profile : LC

      Format settings, SBR : No

      Codec ID : 40

      Duration : 59mn 10s

      Bit rate mode : Constant

      Bit rate : 640 Kbps

      Channel(s) : 6 channels

      Channel positions : Front: L C R, Side: L R, LFE

      Sampling rate : 48.0 KHz

      Stream size : 271 MiB (11%)

      Title : japanese audio

      Language : Japanese

      Encoded date : UTC 2011-03-04 10:24:56

      Tagged date : UTC 2011-03-04 10:25:02

   Audio #3

      ID : 3

      Format : AAC

      Format/Info : Advanced Audio Codec

      Format version : Version 4

      Format profile : LC

      Format settings, SBR : No

      Codec ID : 40

      Duration : 59mn 10s

      Bit rate mode : Variable

      Bit rate : 640 Kbps

      Maximum bit rate : 644 Kbps

      Channel(s) : 6 channels

      Channel positions : Front: L C R, Side: L R, LFE

      Sampling rate : 48.0 KHz

      Stream size : 271 MiB (11%)

      Title : english audio

      Language : English

      Encoded date : UTC 2011-03-04 10:24:59

      Tagged date : UTC 2011-03-04 10:25:02

   Text #4

      ID : 4

      Format : VobSub

      Codec ID : subp

      Codec ID/Info : The same subtitle format used on DVDs

      Duration : 55mn 24s

      Bit rate mode : Variable

      Bit rate : 10.9 Kbps

      Stream size : 4.32 MiB (0%)

      Title : Japanese

      Language : Japanese

      Encoded date : UTC 2011-03-04 10:25:02

      Tagged date : UTC 2011-03-04 10:25:02

   Text #5

      ID : 5

      Format : VobSub

      Codec ID : subp

      Codec ID/Info : The same subtitle format used on DVDs

      Duration : 59mn 8s

      Bit rate mode : Variable

      Bit rate : 11.7 Kbps

      Stream size : 4.94 MiB (0%)

      Title : English

      Language : English

      Encoded date : UTC 2011-03-04 10:25:02

      Tagged date : UTC 2011-03-04 10:25:02

   Text #6

      ID : 6

      Format : VobSub

      Codec ID : subp

      Codec ID/Info : The same subtitle format used on DVDs

      Duration : 59mn 8s

      Bit rate mode : Variable

      Bit rate : 11.1 Kbps

      Stream size : 4.70 MiB (0%)

      Title : French

      Language : French

      Encoded date : UTC 2011-03-04 10:25:02

      Tagged date : UTC 2011-03-04 10:25:02

   Text #7

      ID : 7

      Format : VobSub

      Codec ID : subp

      Codec ID/Info : The same subtitle format used on DVDs

      Duration : 59mn 8s

      Bit rate mode : Variable

      Bit rate : 12.2 Kbps

      Stream size : 5.16 MiB (0%)

      Title : Spanish

      Language : Spanish

      Encoded date : UTC 2011-03-04 10:25:02

      Tagged date : UTC 2011-03-04 10:25:02

   Text #8

      ID : 8

      Format : VobSub

      Codec ID : subp

      Codec ID/Info : The same subtitle format used on DVDs

      Duration : 59mn 8s

      Bit rate mode : Variable

      Bit rate : 13.3 Kbps

      Stream size : 5.63 MiB (0%)

      Title : Chinese

      Language : Chinese

      Encoded date : UTC 2011-03-04 10:25:02

      Tagged date : UTC 2011-03-04 10:25:02

   Text #9

      ID : 9

      Format : VobSub

      Codec ID : subp

      Codec ID/Info : The same subtitle format used on DVDs

      Duration : 59mn 8s

      Bit rate mode : Variable

      Bit rate : 13.3 Kbps

      Stream size : 5.62 MiB (0%)

      Title : Chinese

      Language : Chinese

      Encoded date : UTC 2011-03-04 10:25:02

      Tagged date : UTC 2011-03-04 10:25:02

__________________________________________________________________
Credit : คุณไม่สามารถมองเห็น links ได้ กรุณา.สมัครสมาชิก หรือ เข้าสู่ระบบ
เว็บเพื่อนบ้าน

LikePost โดย 0 สมาชิก :


 

Sitemap 1 2 3 4 5 6 7 8 9 10 11 12 13 14 15 16 17 18 19 20 21 22 23 24 25 26 27 28 29 30 31 32 33 34 35 36 37 38 39 40 41 42 43 44 45 46 47 48 49 50 51 52 53 54 
ร่วมขับเคลื่อนโดย